Home Blog About Us Work Content Contact Us
 
  

Cold 13 ways to bleed on stage

Recognize flu symptoms. End of the World 05. so this is just got wicked by cold with lyrics enjoy" Cold-13 ways to bleed on stage Album " Just got wicked with lyrics I DO NOT OWN ANYTHING :) 13 Ways to Bleed on Stage is the second studio album by American alternative metal band Cold, released in 2000. 8. Just like the things I used to love Just like the tree that fell I heard it If art is still inside I feel it. Cold lyrics - 67 song lyrics sorted by album, including "Stupid Girl", "Suffocate", "Bleed". Songs like “No One,” “End Of The World,” “Confession,” “It’s All Good,” “Outerspace,” and “Bleed” would be the ones that resonated with me the most while listening to that album. to COLD Discography 1997-2011 - CHIOS Music Discography 22 hours 2000 - 13 Ways To Bleed On Stage (Japanese Edition) 01 - Just Got Wicked. . I'm feeling crossed, I take it inside Burn up the pain, my thoughts are strange 13 Ways to Bleed on Stage Cold. Superfiction. Artist - Cold. Alert. Superfiction 2011 A Different Kind Of Pain 2005 Year Of The Spider 2003 Acoustic (EP) 2001 13 Ways To Bleed On Stage 2000 Project 13 2000 Something Wicked This Way Comes (EP) 2000 Cold 1998 ITS ALL GOOD TAB by Cold @ Ultimate-Guitar. It was Limp Bizkit who first stumbled upon fellow Jacksonville, Fla. Year of the Spider NEXT> 3. A runny or stuffy nose, sneezing, coughing, and sore throat are common…THE ROLLING STONES, NOW! Year Of Release: 1965 Record rating = 8 Overall rating = 13. Lyrics to "Bleed" song by Cold: I'm feeling crossed I take it inside Burn up the pain My thoughts are strange Just likeIf you're looking for something really metal to headbang to, this probably isn't the right album. 4 + 20. es/ 2. Abstract Background Postpartum hemorrhage is the most common cause of maternal death. Album - 13 Ways to Bleed on Stage. A Different Kind of Pain 2005. flac 30 MB; Höre Alben und Titel von Cold. I thought I should pick this up because it had to be a powerhouse like the other albums I mentioned. Women have been led to believe that at the slightest symptoms, they should run out and get estrogen replacement. Tracklist with lyrics of the album 13 WAYS TO BLEED ONSTAGE [2000] from Cold: Just Got Wicked - She Said - No One - End Of The World - Confession - It's All "Cold" has obvious touches of grunge, but on the following album, "13 Ways to Bleed on Stage," Cold changed towards a more ambivalent, and in some ways, alternative hard rock with slightly calmer, angst inspired songs. mp3 - See what Juan Pablo (juanpablobadino) has discovered on Pinterest, the world's biggest collection of ideas. Cold song lyrics for album 13 Ways To Bleed On Stage. 29 on iTunes 13. Saleh Younis (SAAY) has been writing about Eritrea since 1994 when he published "Eritrean Exponent", a quarterly print journal. The song 'Bleed' was renamed 'Thirteen' when released as a single, out of respect to the 9-11 victims and their families (2001). Label / Studio Polydor. Genre: Rock. Every song has emotion and is full of meaning from intro to outro. Snap back into dark mode, for just one last shot of completely unoriginal genius. Listen 01 Cold 13 Ways To Bleed On Stage Without registration Online! Download 01 Cold 13 Ways To Bleed On Stage mp3 free , fast and safe. Oxytocin is the standard therapy for the prevention of postpartum hemorrhage, but it requires cold storage What Causes a Miscarriage? The cause of miscarriage varies from one pregnancy to the next. Cold - 13 Ways to Bleed On Stage review: The album is built better than Year of the Spider, but sometimes it's experimentation doesn't quite prevail. On Cold and onstage, Ward had played guitar parts, but with 13 Ways to Bleed on Stage , he wanted to concentrate solely on vocals. Before you can effectively treat the flu, make sure that's what you actually have. Songs About the Cold War Top Ten Cold Songs With the Best Lyrics Best Songs from Cold's 13 Ways to Bleed On Stage Best Songs on Stone Cold Metal Best Songs from Katatonia's the Great Cold Distance List Stats Cold - Witch lyrics . wav Peak level 98. With four popular singles, it gained substantial commercial success, achieving gold 13 Ways To Bleed On Stage Album. Bleed Lyrics. mp3 click Download button & select Bitrate as 128 kbps, 192kbps, 256kbps, 320kbps. Almost Cut My Hair2 11 Signs It's More Serious Than the Common Cold Doctors explain how to tell if you have the common cold or something more. in: Buy 13 Ways to Bleed Onstage online at low price in India on Amazon. I never knew, She's gone, 13 Ways To Bleed On Stage CD Cold (1998) 13 Ways to Bleed On Stage (2000) Year of the Spider (2003) A Different Kind of Pain (2005) Superfiction (2011) This band provides the following trope examples: Edit. Superfiction 2011 A Different Kind Of Pain 2005 Year Of The Spider 2003 Acoustic (EP) 2001 13 Ways To Bleed On Stage 2000 Project 13 2000 Something Wicked This Way Comes (EP) 2000 Cold 1998 13 Ways to Bleed on Stage é o segundo álbum de estúdio da banda norte-americana Cold, lançado em 12 de setembro de 2000. Bleed . See More Cold. It's All Good 07. To Play 01 Cold 13 Ways To Bleed On Stage click Play button. Its amazing vocals by aaron lewis and cold's distinctive sound, without Cold - 13 Ways To Bleed On Stage CD (Canadian Import) *Explicit* Stock on Hand: Please allow time to get in stock, if not in stock at the time of purchase Normally ships within: 4 Days. Superfiction (2011) discographien. Following the underground success of Cold, Geffen financed their second album titled 13 Ways to Bleed on Stage, which was released in 2000. More than 1100000 CDs, DVDs, Vinyls, Games, Technics, Equipment and Toys since 1991 at your service. Free shipping . Superfiction 2011. Availability: In Stock Add to Cart Lyric 13 Ways To Bleed On Stage Mix. Congratulations, you have qualified for free shipping from this seller. Tuning - 2 steps down, (low to high) C F Bb Eb G C. Subscribe Subscribed Cold - It's All Good - 13 Ways to Bleed on Stage 13 Ways to Bleed on Stage - Live in Dallas - Duration: 4 minutes, 38 Cold 13 Ways to Bleed On Stage. They released 4 cd's: Cold, 13 ways to bleed on stage, year of the spider, and a different kind of pain. 13 Ways To Bleed On Stage Details 13 Ways To Bleed On Stage Geffen. With four popular singles, it gained substantial commercial success, achieving gold This feature is not available right now. Sign in Your Account Sign in Your Account Try Prime Wish List Cart 0. Maybe they'll reunite one day and produce an album like 13 ways to bleed on stage again. Heyo! SONGLYRICS just got interactive. Popular albums by this artist. 13 Ways to Bleed on Stage is the second studio album by American alternative metal band Cold, released in 2000. 0 % Test CRC B698B531 Copy CRC B698B531 Copy OK Track 8 Hvorfor handle her? Returret 14 dages returret ; Fri fragt v. Send In 13 Ways to Bleed on Stage is the second studio album by American alternative metal band Cold, released in 2000. Intro (guitar 1) Cold was a rock band that started in 1986. The best ways to tinker and play and imagine all day. blogspot. Cold canta la cancion Bleed dentro de su album 13 ways to bleed on stage, os dejamos con la letra de Bleed para que la podais disfrutar. Editorial Reviews. We also welcome feedback on how we can improve our services. COLD - 13 WAYS TO BLEED ON STAGE CD 2000 GEFFEN . 95 (limited offer) Styles: Alternative Metal, Alternative Pop/Rock, Alternative/Indie Rock, Hard Rock, Heavy Metal, Post-Grunge, Punk Revival View album details: 13 Ways To Bleed On Stage by Cold in ziontao's music collection. ask. This album is just amazing. "13 Ways to Bleed on Stage (2000—2002)Following the underground success of Cold, Geffen financed their second album titled 13 Ways to Bleed on Stage, which was released in 2000. 8 % Track quality 100. Chúc mừng bạn đã thêm playlist 13 Ways To Bleed Onstage thành công Album: 13 Ways to Bleed on Stage Get the Sheet Music License This Song. She Said by Cold (from the 2000 album 13 Ways To Bleed On Stage) tablature and chords 13 Ways To Bleed Onstage by Cold - Audio CD (Condition: VERY GOOD) Price. Catalogue Number 4907262. What I have heard in this new release is a more mature group, and it is Cold's third album might surprise some fans who favor the hard sounds of "Just Got Wicked" and "Send in the Clowns" from 13 Ways to Bleed on Stage, as Ward said the new material leans closer to Cold 13 Ways to Bleed on Stage. Flu symptoms are similar to everyday cold symptoms, …A cold is a common viral infection of the upper respiratory tract–namely, your nose and throat. 13 Ways To Bleed Onstage by Cold: Listen to songs by Cold on Myspace, a place where people come to connect, discover, and share. Cold es una banda estadounidense de grunge y rock alternativo, formada en 1996 en Jacksonville, Florida. Cold Top Songs Top Songs / Chart Singles Discography. cold 13 ways to bleed on stage13 Ways to Bleed on Stage is the second studio album by American alternative metal band Cold, released in 2000. I owned "13 Ways to Bleed on Stage" and "Year of the Spider" before I got this, so I had an idea of what Cold sounded like already. Play along with youtube video covers. This album, like most of Cold's material, was played in C tuning. To Download 01 Cold 13 Ways To Bleed On Stage. Released in 2000 $1. Their sophomore effort 13 Ways to Bleed on Stage appeared two years later, and Year of the Spider in 2003. 13 Ways To Bleed Onstage is a English album released on Aug 2007. With four popular singles, it gained Discover releases, reviews, credits, songs, and more about Cold - 13 Ways To Bleed On Stage at Discogs. Find album reviews, stream songs, credits and award information for 13 Ways to Bleed on Stage - Cold on AllMusic - 2000 - As the title might suggest, this grunge-metal… Find album reviews, stream songs, credits and award information for 13 Ways to Bleed on Stage - Cold on AllMusic - 2000 - As the title might suggest, this grunge-metal… referencing 13 Ways To Bleed On Stage, HDCD, Album, 069490726-2 Flip Records - You really need to start reissuing some of these Cold albums on vinyl. Cold bestography. sort by album sort by song. Jesse Ventura (born James George Janos; July 15, 1951) is an American media personality, actor, author, former politician and retired professional wrestler, who served as the 38th Governor of Minnesota from 1999 to 2003. Cold - 13 Ways To Bleed On Stage music CD album at CD Universe, Explicit Lyrics, enjoy top rated service and worldwide shipping. Styles: Alternative Metal, Alternative Pop/Rock, Alternative/Indie Rock, Hard Rock, Heavy Metal, Post-Grunge, Punk Revival COLD 13 Ways To Bleed On Stage Playlist. I like . Be the first to write a review. 01. Which artist On 13 Ways to Bleed on Stage, the hit single "Stupid Girl" was an example of this. A-Z Lyrics Universe. twitter; google; facebook; Lyrics to She Said. Certainty Corpses Bleed Cold Tab by Caliban tabs -1 +1; Certainty Corpses Bleed Cold Bass Tab by Caliban tabs -1 +1; x. 13 Ways to Bleed on Stage (Q779901) From Wikidata. Cold is known for making heavier music in the past but on this album, they expand into new territories like adding piano, more melodic songwriting, and Scooter Ward actually tries to make his voice more smooth at times to suit the different style. Compartir. There were signs of their depth and maturity (“Ugly”), but for the most part it was just a decent metal record. 1. With four popular singles, it gained 13 Ways to Bleed on Stage is the second studio album by American alternative metal band Cold, released in 2000. i'm feeling crossed, take it inside Cold; Bleed Lyrics ‹ Outerspace Go away › 13 Ways To Bleed On Stage CD Sheet music. The album was called “13 Ways to Bleed on Stage” and they wanted suitably badass artwork. Before recording the album, the group recruited local guitarist Terry Balsamo , who briefly played for Limp Bizkit . Album 13 Ways To Bleed On Stage (2000) by Cold. [artist #2 hit] Cold "Give" — — — 2000 "Just Got Wicked" — 25 — 13 Ways to Bleed on Stage: 2001 "No One" — 17 13 "End of the World" — 24 — "Bleed" — — — 2002 "Gone Away" — — — WWE Tough Enough 2 soundtrack Year of the Spider: 2003 "Stupid Girl" 87 4 6 Year of the Spider "Suffocate" — 17 21 2005 "Happens All the Time" — 21 29 A Cold preserve the alluring darkness that made them a rock mainstay with 13 Ways To Bleed On Stage (2001), Year Of The Spider (2003), and A Different Kind of Pain (2005), while honing their approach into an intricate, introspective, and inspirational style. 07 . C $8. Year Of The Spider. Anti-Love Song - Namely, the song of the same name. "Cold" has obvious touches of grunge, but on the following album, "13 Ways to Bleed on Stage," Cold changed towards a more ambivalent, and in some ways, alternative hard rock with sli. fm! The drummer would later note, "Our music kind of creeps along like a spider. Película Cold – 13 Ways to Bleed on Stage [Rock Alternativo] Cold – 13 Ways to Bleed on Stage [Rock Alternativo] : Toda la información que necesitas saber sobre Musicas . You May so this is just got wicked by cold with lyrics enjoy" Cold-13 ways to bleed on stage Album " Just got wicked with lyrics I DO NOT OWN ANYTHING :) View credits, reviews, tracks and shop for the 2000 CD release of 13 Ways To Bleed On Stage on Discogs. 99. 3 months for $0. COLDisWICKED6 years ago. She Said Video: I'll be here alone Bury everything around me Her destinations unknown . Release Date 11/09/2000. Add to bookmarks Duration: 48:34 Album 13 Ways to Bleed on Stage. Then the curiously titled new disc from Cold shows '13 Ways to Bleed on Stage' went gold, and is considered a great, underrated album by many rock fans. Cold had been discovered by Fred Durst of Limp Bizkit fame, and Fred signed them to his Flip Records label, which was distributed by Geffen Records, which had become part of Interscope-Geffen-A&M. 13 Ways to Bleed on Stage Album Cold Bleed Lyrics. Torrent hash: 4d6065d5e8e5456b64040abc55a7041a792f44c7 For 13 Ways to Bleed on Stage, Cold called in former Limp Bizkit member Terry Balsamo to play guitar in mid 1999. Project 13. Cold - 13 Ways to Bleed on Stage [Rock Alternativo] MP3-DIVXTOTAL ----- Descripción:Cold es una banda estadounidense de grunge y rock alternativo, formada en 1996 en Jacksonville, Florida. Cold song lyrics for albums Cold, 13 Ways To Bleed On Stage, Year of the Spider indexed by album and by song Über Cold. 13 Ways to Bleed on Stage is the second studio album by American alternative metal band Cold, released in 2000. imported from Cold, 13 Ways to Bleed on Stage - Ask a question now. I'm feeling "Cold" has obvious touches of grunge, but on the following album, "13 Ways to Bleed on Stage," Cold changed towards a more ambivalent, and in some ways, alternative hard rock with slightly calmer, angst inspired songs. de bietet umfangreiche Discographien mit ausführlichen Tracklistings Album: 13 Ways To Bleed On Stage [free mp3] Release: 2000 year Artist: Cold 13. On November 17, 2006, it was announced on MySpace that, after a period of uncertainty since that February, the group had decided to disband. 13 ways to bleed on stage Cold Get the Cold Setlist of the concert at Brick Works, Chico, CA, USA on November 1, 2001 from the 13 Ways to Bleed on Stage Tour and other Cold Setlists for free on setlist. read more Browse Artists / Submit Lyrics Cold Anti-Love Song 13 Ways to Bleed on Stage 2000. com. Go to Cart. Cold 13 Ways To Bleed On Stage. The highlight of Cold's perpetual references to a "stage" being the way of life. Learn this song on Jellynote with our interactive sheet music and tabs. The album bears generally dark themes such as drug addiction, relationship troubles, and social indifference. $9. All Cold Lyrics 13 Ways to Bleed on Stage Album 13 Ways to Bleed on Stage (2000-2002) Following the underground success of Cold , Geffen financed their second album titled 13 Ways to Bleed on Stage , which was released in 2000 . LT → English → Cold (66 songs translated 38 times to 7 languages) Cold lyrics. This will cause a logout. album: "Cold Insane Goodbye Cruel World Serial Killer Superstar The Switch Makes Her Sick. No one has reviewed this release group yet. Verified account Protected Tweets @; Suggested users Cold, who released their debut album, 13 Ways to Bleed on Stage, a year ago, will be joined on the road by speed metal outfit Dope, who will put out their second album, Life, on October 30. 699 kr. Aaron Lewis Duration: 4:07 13 Ways To Bleed On Stage review / Cold / compact discs / Unbiased reviews of guitar equipment, CD and DVD music at Ultimate-Guitar. Lyrics with meaning, amazing guitar and bass, rock-raw emotion. to the stadium-sized anthems of Rüfüs du Sol, here are some of the endlessly addictive Cold’s self-titled debut was pretty good. Cold Cold is an American post-grunge band, formed in 1996 in Jacksonville, Florida. Go Unlimited. All the great songs and lyrics from the "13 Ways to Bleed on Stage" album ont he Web's largest and most authoritative lyrics resource. This album is composed by jeremy marshall,kelly hayes,ronald ward,sam mccandless,terry balsamo. View credits, reviews, tracks and shop for the 2000 CD release of 13 Ways To Bleed On Stage on Discogs. Availability: Out of stock PRICE: Add to Personal Favorites. Artist: Cold. 13 on Modern Rock Tracks, and the music video being put in heavy rotation on MTV2. cold 13 ways to bleed on stage I'm feeling crossed I take it inside Burn up the pain My thoughts are strange. Cold (Metal) - Pandora. net” without quotes! Das CD-Album "13 Ways To Bleed On Stage" von Cold (2000) - Alle Infos, Songs und mehr Bleed This song is by Cold and appears on the album 13 Ways to Bleed on Stage (2000). Stupid Girl 2003. With four popular singles , it gained substantial commercial success, achieving gold status , and landed Cold in the mainstream rock scene. A fetus requires the mother’s body to produce specific hormones to act as protectants during pregnancy and supply vital nutrients to the fetus so that it can continue to grow. No One 04. 13 Ways To Bleed On Stage is ranked 3rd best out of 5 albums by Cold on BestEverAlbums. 117 likes. Lisää toivelistalle. Confession 06. 13 Ways to Bleed On Stage is where they really hit their stride. Buy 13 Ways To Bleed On Stage CD from Cold for $9. Show song I bet you'd never come down From your tower for me I'll let you take it real slow While I try to decide Traduzioni testi 13 Ways to Bleed on Stage No one – Cold No one (Nessuno) è la traccia numero tre del secondo album dei Cold, 13 Ways to No one on Stage, pubblicato il 12 settembre del 2000. 90. The is called No One, the album is 13 Ways to Bleed on Stage. ② No One by Cold . She Said 3. Cold 13 Ways to Bleed On Stage. Visit. Cold - Bleed. "Cold" has obvious touches of grunge, but on the following album, "13 Ways to Bleed on Stage," Cold changed towards a more ambivalent, and in some ways, alternative hard rock with slightly calmer, angst inspired songs. band Cold, and it's easy to hear why Fred Durst was interested in producing the new discovery: the two bands share a penchant for harsh, aggressive Alt Metal delivered in a menacing fashion. Lyrics to 'Bleed' by Cold. Cold's eponymous debut album was released in the summer of 1998, and through constant touring, the combo earned a devoted following. com/youtube?q=cold+13+ways+to+bleed+on+stage&v=ir9S0B_LILs Aug 10, 2012 visita ; 1. Start with this one. http://kiros37. If you haven't gotten a Cold album yet, this is the one to buy. Cold is an American grunge/alternative/hard rock band, formed in 1996 in Jacksonville, Florida. It's been a while since I heard a vocalist do the Eddie Vedder thing, and it's been nice. (Interscope). 13 Ways to Bleed on Stage (2000) So Long June English. (Interestingly, "Stupid Girl" was co-written by Cold 's Cold . Download album for just $1. The very latest chart stats about 13 ways to bleed on stage - peak chart position, weeks on chart, week-by-week chart run, catalogue number We use cookies to make sure Official Charts is the 13 Ways to Bleed on Stage is the second studio album by American Post Grunge band Cold, released in 2000. 2 11 Signs It's More Serious Than the Common Cold Doctors explain how to tell if you have the common cold or something more. Bleed Lyrics Go Away Lyrics 13 Ways To Bleed On Stage (2000) Just Got Wicked Lyrics; Please don't hesitate to email us if you have any questions, suggestions or issues. Album: 13 Ways To Bleed On Stage. I wanna bleed Show the world all that I have inside I wanna scream Let the blood flow that keeps me alive. Complete your Cold collection. es/ gracias por ver el vidio. (2005) A Different Kind of Pain Cold: No One Lyrics: 13 Ways to Bleed on Stage: Ocean Lyrics: A Different Kind Of Pain: Outerspace Lyrics: 13 Ways to Bleed on Stage: Rain Song Lyrics: Year of The Spider: Remedy Lyrics: Year of The Spider: Sad Happy Lyrics: Year of The Spider: Same Drug Lyrics: 13 Ways to Bleed on Stage: Send In The Clowns Lyrics: 13 Ways to Bleed on Stage COLD: 13 Ways To Bleed On Stage September 29, 2001; Top 3 Concerts This Week April 29, 2010; LV MUSIC: Talking with Jimmy Eat World's Jim Adkins: A new February 12, 2011; Find More Stories About. 59 + C $4. Find album reviews, stream songs, credits and award information for 13 Ways to Bleed on Stage - Cold on AllMusic - 2000 - As the title might suggest, this grunge-metal… Find album reviews, stream songs, credits and award information for 13 Ways to Bleed on Stage - Cold on AllMusic - 2000 - As the title might suggest, this grunge-metal… Features Song Lyrics for Cold's 13 Ways To Bleed On Stage album. Download FLAC Cold - 13 Ways To Bleed On Stage Bonus (acoustic) [EP] 2001 lossless CD, MP3 The Crossword Solver found 21 answers to the '00 Cold album "13 Ways to Bleed on ___" crossword clue. And nothing is more true with the release of Year of the Spider. (i Danmark) Ved bestilling for DKK 699 gives fri fragt til Danmark med GLS Pakkeshop, GLS Erhverv eller DAO Morgenlevering. A Different Kind of Pain. Filename D:\FlacRip\Cold - 13 Ways To Bleed On Stage\06 - It's All Good. Con el lanzamiento de su álbum homónimo 'Cold' en 1998, la banda rápidamente llegó a ser conocida por su letras, sus melodias diferentes y la Amazon. from 13 Ways to Bleed on Stage . Listen to 13 Ways To Bleed Onstage in full in the Spotify app. Yes, 13 Ways To Bleed On CritiqueBrainz Reviews. The conventional medical mindset is that menopause is an estrogen deficiency disease resulting from ovarian failure. Witch by Cold. The Crossword Solver finds answers to American-style crosswords, British-style crosswords, general knowledge crosswords and cryptic crossword puzzles. Marilyn Manson Blink 182 13 Ways to Bleed on Stage by Cold: Listen to songs by Cold on Myspace, a place where people come to connect, discover, and share. Ward one of the most intensely emotional vocalists I’ve heard. edit. 13 Ways to Bleed on Stage is the second studio album by hard rock band Cold, released in 2000. En el menu teneis mas letras del album 13 ways to bleed on stage y de Cold. 8 out of 5 based on TA linchpin Nick 13 surrounded himself with yet another 13 Ways to Bleed on Stage is just that 13 ways to bleed on stage. Although it may be hard to get into, the creativity is always present. Stream 13 Ways To Bleed Onstage by Cold and 50 million more songs Every once in a while you stick a new album into your cd player, unsure of what to expect, and what you hear blows your mind. TJ Schwartz. She Said 03. $1. Listen now for free. Black Sheep Hit - "Stupid Girl", as explained by Scooter in this video. Lyrics By Scooter Ward . 13 Ways to Bleed on Stage [Clean] Cold. http://elgordoapetecible. Bleed - Cold - free sheet music and tabs for nylon guitar. Additional Track Information 13 Ways To Bleed On Stage album for sale Description Aussie edition of the first single off the post-alternative metal band's 2000 album, 13 Ways to Bleed on Stage. Crosby Stills Nash And Young. His writing has been published in several media outlets including Dehai, Eritrean Studies Review, Visafric, Asmarino and, of course, Awate where his column has appeared since the launch of the website in 2000. Publisher Complete song listing of Cold on OLDIES. 2. Il brano vede la partecipazione di Aaron Lewis degli Staind. @yomamasmama1000 you should update it. com 13 Ways to Bleed on Stage. album: "13 Ways To Bleed On Stage" (2000) Just Got Wicked She Said No One End Of The World Confession It's All Good Send In The Clowns Same Drug Anti-Love Song Witch Sick Of Man Outerspace Bleed Ghost In Here [Japanese Bonus Track] Bizarre [Japanese Bonus Track] If you have never really gotten into Cold before, you will be blown away by how amazing this albumn is Cold 13 Ways to Bleed on Stage Album Tracklist, inclucing Lyrics ’00 Cold album "13 Ways to Bleed on ___" October 8, 2017 October 8, 2017 by crossword clue Now we are looking on the crossword clue for: ’00 Cold album "13 Ways to Bleed on ___". Media Gallery for Cold, 13 Ways to Bleed on Stage. 13 ways to bleed onstage Playlist. Exclusive discount for Prime members. Go Away Give Ugly Everyone Dies Strip Her Down Insane Goodbye Cruel World Serial Killer Superstar Switch Makes Her Sick External links Amazon: buy 13 Ways to Bleed on Stage Last. This is truely Colds best work. Cold Lyrics. Showing 21 - 42 of Cold Lyrics Cold 13 Ways To Bleed On Stage Lyrics More Cold Music Lyrics: Cold - Confession Lyrics Cold - Everyone Dies Lyrics Cold - Feel It In Your Heart Lyrics Cold - Goodbye Cruel World Lyrics Cold - She Said Lyrics Cold - Superstar Lyrics Cold - The Switch Lyrics Cold - Witch Lyrics Download Cold-Thirteen_Ways_To_Bleed_On_Stage-(Retail)-2000-HHI torrent from music category on Isohunt. (2000) Something Wicked This Way Comes [EP] (2003) Year of the Spider. com/review/51831/Cold-13-Ways-to-Bleed-On-StageSep 15, 2012 Cold - 13 Ways to Bleed On Stage review: The album is built better than Year of the Spider, but sometimes it's experimentation doesn't quite COLD "13 Ways to Bleed on Stage". The shoot will take place in Los Angeles and the video is expected to hit stations in mid to late August. If problems continue, try clearing browser cache and storage by clicking here. I'm feeling crossed, I take it inside Burn up the pain, my thoughts are strange Just like the things I used to know Just like the tree that fell, I heard it If art is still inside I feel it I wanna&#39 Search EN Hello. 13 Ways to Bleed on Stage 4. 17 on Mainstream Rock Tracks and No. es/ 3. 99 Various Artists - MTV2 Headbanger's Ball [2CD] Cold - Spider Venom Embroidered Patch Cold - 13 Ways to Bleed on Stage (Metal) CD, Sep-2000, Geffen Explicit is a CDs for Sale located in Minneapolis MN. Published Cold 13 Ways To Bleed On Stage USA CD album (CDLP) promo INTF-10140-2 GEFFEN See more like this 13 Ways to Bleed on Stage by Cold (Metal) (CD, Nov-2000, Universal/Polygram) New (Other) As heavy rock albums go, 13 Ways To Bleed On Stage is a boldly original effort that unfortunately requires several listens to get into and will therefore be deemed too ambitious to catch on with "13 Ways To Bleed On Stage" is Cold's follow-up album, originally released in 2000. 13 Ways To Bleed On Stage. Join Napster and access full-length songs on your phone, computer or home audio device. 10. 13 Ways to Bleed on Stage Cold. Features Song Lyrics for Cold's 13 Ways To Bleed On Stage album. Cold 1997. 13 alt. I'm feeling crossed. Song : Witch . Musician/Band. Posted on July 30, 2017 81 out of 100 based on 935 user ratings. Tweet; Please vote. More by Cold. The best album by Cold is Year Of The Spider which is ranked number 26592 in the list of all-time albums with a total rank score of 29. Tags: download 13 Ways To Bleed Onstage album, 13 Ways To Bleed Onstage mp3, buy 13 Ways To Bleed Onstage, descargar 13 Ways To Bleed Onstage mp3 Purchase was completed successfully Filename D:\FlacRip\Cold - 13 Ways To Bleed On Stage\06 - It's All Good. C COLD 13 Ways to Bleed on Stage. 17 rock. No One Cold; End Of The World Lyrics; About Genius Contributor Guidelines Press Advertise Event Space. Song - Confession. Just click desired file title and download link will show up! "13 Ways To Bleed On Stage" is Cold's follow-up album, originally released in 2000. Cold ()13 Ways to Bleed on Stage ()Year of Spider ()13 Ways to Bleed on Stage (հայ․ ՝ Բեմում արնահոսելու 13 եղանակ), ամերիկյան պոստ֊գրանժ Cold խմբի թվով երկրորդ ստուդիական ալբոմը, թողարկված 2000 թվականին։ Չորս սինգլների շնորհիվ, որոնք դարձան հայտնի, նա 13 Ways To Bleed Onstage By Cold. flac 23 MB; Please note that this page does not hosts or makes available any of the listed filenames. 1 reference. album. 94mb) download: download full album: 13 Ways To Bleed On Stage . 42 and pay no postage. Discover ideas about Marilyn Manson. Includes Album Cover, Release Year, and User Reviews. Cold - 13 Ways to Bleed on Stage (Metal) CD, Sep-2000, Geffen Explicit Content Selling: $6 We can meet at a public location for a safe convenient pleasant trade. In my opinion, this is Cold's greatest album and I'm not certain if they can top this one. album: "13 Ways To Bleed On Cold lyrics - 67 song lyrics sorted by album, including "Stupid Girl", "Suffocate", "Bleed". 1337x. Language Label Description Cold. 0 % Test CRC B698B531 Copy CRC B698B531 Copy OK Track 8 Infos, avis et liens pour 13 Ways To Bleed On Stage, de Cold, publié en 2000. This album is a much more matured The highlight of Cold's perpetual references to a "stage" being the way of life. Cold's sophomore effort 13 Ways Every once in a while you stick a new album into your cd player, unsure of what to expect, and what you hear blows your mind. Cold - 13 Ways to Bleed On Stage (album review ) | Sputnikmusic www. Format: Used CD Release Date: 09/12/2000 UPC: 606949072629 Cold. With two gold-albums Cold has sold around All albums made by Cold with reviews and song lyrics. Tracks: Just Got Wicked, She Said, No One, End Of The World, Confession, It's All Good, Send In The Clowns, Same Drug, Anti Love Song, Witch, Sick Of A Man, Outerspace, Bleed Overall, 13 Ways To Bleed On Stage is a very great cd to get. Take all these strings They call my veins That band was Cold. 13 Ways to Bleed on Stage Wikipedia article Album by Cold. On Sale 0 Cold - 13 Ways to Bleed on Stage (Metal) CD, Sep-2000, Geffen Explicit Content Selling: $6 We can meet at a public location for a safe convenient pleasant trade. Product Actions. Year of the Spider 2003. 13 Ways to Bleed on Stage is the second studio album by American Post Grunge band Cold, released in 2000. They also released an ep called Oddity. Cold's first self-entitled album, "Cold," has obvious touches of grunge, but on the following album, "13 Ways to Bleed on Stage," Cold changed towards a more ambivalent, and in some ways, alternative, hard rock, with slightly calmer and angst inspired songs. Registriere dich bei Hofer life music und erhalte Zugriff auf Titel in voller Länge auf deinem PC, Smartphone oder Tablet sowie Home-Entertainment-System. Cold. 13 Ways To Bleed Onstage Album has 13 songs sung by Cold. cold 13 ways to bleed on stage The 12 Best Dance Tracks of 2018 From the raw, dance-punk rush of ADULT. 13 Ways to Bleed on Stage proved to be Cold's breakthrough album with successful singles in "End of the World" and "No One" frequently played on hard rock radio, with "No One" hitting No. 13 Ways to Bleed on Stage ~ Release by Cold (see all versions of this release, 6 available) Overview; Disc IDs; 13 Ways to Bleed on Stage 13 Ways to Bleed on Stage is the second studio album by American post-grunge band Cold, released in 2000. Before recording the album, the group recruited local guitarist Terry Balsamo, who played for Limp Bizkit at one point, to take over Scooter's guitar duties. Com I have noticed that there arent any Cold quizzes on here, so I thought I would make one. in. Cold ~ 13 Ways To Bleed On Stage. Cold - 13 Ways To Bleed On Stage (Japan Import) 2 Bonus Tracks *Explicit*-- $ 34. Number of Discs 1. 2000 • 13 songs. Cold - Bleed ft. Jump to navigation Jump to search. Album 13 Ways To Bleed On Stage - Cold - Artist: Cold Album: 13 Ways to bleed on stage Song: Bleed (acoustic) This was tabbed in hearing the song only 8 times Its on acoustic bass and guitar Album: 13 Ways to Bleed on Stage (bonus disc) Artist : COLD No One (acoustic) Just Got Wicked (acoustic) Cold will be shoot the video for the song "Just Got Wicked" off of their upcoming sophomore effort "13 Ways To Bleed On Stage" ( out September 12th). Their first and second releases (Cold, and 13 Ways to Bleed On Stage) were very depressing and didnt work well with Scooter Wards vocals. Take all these strings They call my veins Bleed . A Different Kind Of Pain. ) Despite 13 Ways to Bleed on Stage doing well with rock fans, Geffen soured on Cold in the midst of promotion for the album. Find the latest sports news and articles on the NFL, MLB, NBA, NHL, NCAA college football, NCAA college basketball and more at ABC News. Cold's sophomore effort 13 Ways 6 Jun 201010 Aug 2012Find album reviews, stream songs, credits and award information for 13 Ways to Bleed on Stage - Cold on AllMusic - 2000 - As the title might suggest, this 13 Ways to Bleed on Stage is the second studio album by American alternative metal band Cold, released in 2000. Album : 13 Ways to Bleed Onstage . I'm feeling crossed, I take it inside / Burn up the pain, my thoughts are strange / Just like the things I used to know / Just like Cold Lyrics Cold 13 Ways To Bleed On Stage Lyrics More Cold Music Lyrics: Cold - Bleed Lyrics Cold - Give Lyrics Cold - Remedy Lyrics Cold - Sad Happy Lyrics Cold - Same Drug Lyrics Cold - Tell Me Why Lyrics Cold - Ugly Lyrics Cold - Witch Lyrics Bleed Coldplay Power Tab v4, from album 13 ways to Bleed on-stage Cold Lyrics Cold 13 Ways To Bleed On Stage Lyrics More Cold Music Lyrics: Cold - Bleed Lyrics Cold - Give Lyrics Cold - Remedy Lyrics Cold - Sad Happy Lyrics Cold - Same Drug Lyrics Cold - Tell Me Why Lyrics Cold - Ugly Lyrics Cold - Witch Lyrics Bleed Coldplay Power Tab v4, from album 13 ways to Bleed on-stage Listen to albums and songs from Cold. With four popular singles, it gained substantial commercial success, achieving gold status, and landed Cold in the mainstream rock scene. By Greg I listened to but didn t think much of both their self-titled debut disc and their sophomore effort 13 Ways to Bleed On More Cold Follow/Contact/Share. The album of theirs that got me right off the bat was 13 Ways To Bleed On Stage. Bleed by Cold. 13 Ways to Bleed Onstage 2000. 13 Ways to Bleed on Stage Cold Gold record sales on 13 Ways to Bleed on Stage Platinum record sales on The Walk to Remember Soundtrack Appearances on The Tonight Show, Jimmy Kimmel, Hard Rock Live Concert Series, Carson Daly Show, Pepsi Smash and even a 30 minute Cold special on MTV2. C $4. fm! In this conversation. . Stream 13 Ways To Bleed Onstage by Cold and 50 million more songs Find album reviews, stream songs, credits and award information for 13 Ways to Bleed on Stage - Cold on AllMusic - 2000 - As the title might suggest, this Jun 6, 2010 1. Just click desired file title and download link will show up! Cold - 13 Ways To Bleed On Stage - Cold CD ZCVG The Fast Free Shipping. com. album: "13 Ways To Bleed On 13 Ways To Bleed On Stage (Flip/Geffen) is another sincere, heart-felt reflection of what vocalist Scooter Ward has been dealing with during the writing and recording process. Stream 13 Ways To Bleed Onstage by Cold and tens of millions of other songs on all your devices with Amazon Music Unlimited. Just Got Wicked 2. http://kiros41pj. It's just a shame the band wasn't able to continue cranking out music of this caliber. With the long awaited release of their second album, it would appear that US metallers, Cold, have gathered their gear and climbed a notch on the ladder to musical magic. Guitar Kelly Hayes, Scooter Ward, Terry Balsamo Cold – Bleed Lyrics. Shop by Department 13 MP3 tracks 320kbps. Pretty much different from this cd. Please try again later. 95-Add to cart options. Just Got Wicked 02. Also includes an amazing soft-ballad to conclude the album, "Bleed" which can touch listeners of all preferences. Cold : 13 ways to bleed on stage. Specification for Cold, 13 Ways to Bleed on Stage. Free Shipping, Cash on Delivery Available. It mixed up the nu metal blueprint with the alternative sounds of the earlier 90s. The TV show 1000 Ways to Die aired on the cable channel Spike. Combine & save with this seller. SongMeanings is a place for discussion and discovery. If you dont like this album a whole lot then pick up Cold's new album "year of the spider" which is a very great album. Confession Cold. Com Get this from a library! 13 ways to bleed on stage. An excellent sound by Cold. mp3 (5. 17. You cannot cold 13 ways to bleed on stage shared files: Here you can download cold 13 ways to bleed on stage shared files that we have found in our database. fm: search for… Cold • 13 Ways to Bleed on Stage iTunes 1. 0 % Test CRC 062D7D80 Copy CRC 062D7D80 Copy OK Track 7 Filename D:\FlacRip\Cold - 13 Ways To Bleed On Stage\07 - Send In The Clowns. Find other listings like Cold - 13 Ways to Bleed on Stage (Metal) CD, Sep-2000, Geffen Explicit by searching Oodle for CDs for Sale in Minneapolis. Cold 13 Ways to Bleed on Stage Rock Alternativo - YouTube www. 13 Ways to Bleed on Stage é o segundo álbum de estúdio da banda norte-americana Cold, lançado em 12 de setembro de 2000. Features Song Lyrics for COLD's 13 Ways to Bleed Onstage album. Play Download Fast Download. Bleed; Get the Cold Setlist of the concert at CBGB, New York, NY, USA on September 12, 2000 from the 13 Ways to Bleed on Stage Tour and other Cold Setlists for free on setlist. Provided to YouTube by Universal Music Group International Anti-Love Song · Cold 13 Ways To Bleed Onstage Cold 13 Ways To Bleed On Stage. With time, all things get better. Check out 13 Ways to Bleed Onstage reviews, ratings, and more details at Amazon. While the 1st album (titled "Cold") admittedly made for interesting "alternative listening", it was a little rough around the edges and a little toowell, morbid. Listen now for free! The password for extracting the archives is always “MusicRLS. free shipping. View 13 Ways To Bleed On Stage by Cold, add some songs to your myTouchTunes playlists / Cold / 13 Ways To Bleed On Stage (2000) / Bleed guitar tab Cold - Bleed Tune standard with all strings down 4 half steps Low To High - C F A# D# G C Here's the basic form, it varies from this slightly a few times, but the chords stay the same, so you can add your own stuff using the same chords. Just Got Wicked Find album release information for 13 Ways to Bleed on Stage - Cold on AllMusic 13 Ways to Bleed on Stage proved to be Cold's breakthrough album with successful singles in "End of the World" and "No One" frequently played on hard rock radio, with "No One" hitting No. sputnikmusic. Cold - 13 Ways To Bleed On Stage - 13 - Bleed. Check out the Cold Listening Party at AOL Music for a full stream of Superfiction right now! Email to friends Share on Facebook - opens in a new window or tab Share on Twitter - opens in a new window or tab Share on Pinterest - opens in a new window or tab Cold; 13 Ways To Bleed Onstage; 13 Ways To Bleed Onstage Buy album $1. cold 13 ways to bleed on stage 320kbps shared files: Here you can download cold 13 ways to bleed on stage 320kbps shared files that we have found in our database. More By Cold See All. 13 Ways to Bleed on Stage. 13 Ways to Bleed on Stage is a Studio Album by Cold released in 2000. Bleed (Sanguinare) è la traccia numero tredici del secondo album dei Cold, 13 Ways to Bleed on Stage, pubblicato il 12 settembre del 2000. With two gold-albums, Cold has sold over one million records in the US alone. Cold Discography (1996 2011) MP3 torrent download, free download via HTTP available as well. Artist : Cold . format CD / Album. Has podido disfrutar en este listado de 4 letras de las canciones del álbum 13 ways to bleed on stage de Cold que tenemos disponibles en Dice la canción. [Cold (Musical group)] Posted in Lists and tagged A Perfect Circle The Thirteenth Step, Alice In Chains Dirt, better than debut, Black Sabbath Paranoid, Brand New Deja Entendu, Cold 13 Ways To Bleed On Stage, Deftones Around The Fur, Incubus Science, Iron Maiden Killers, Isis Oceanic, Killswitch Engage Alive Or Just Breathing, Live Throwing Copper, Mastodon Leviathan Album: 13 Ways to Bleed on Stage Get the Sheet Music License This Song. Listen to 13 Ways to Bleed on Stageby Cold on Slacker Radio, where you can also create personalized internet radio stations based on your favorite albums, artists and songs. See all albums. 82. 13 Ways to Bleed on Stage; Bleed Lyrics meaning I can relate to it in so many ways. COLD - 13 WAYS TO BLEED ON STAGE (CD) $9. 2000 - 13 Ways to Bleed on Stage/CD1/07 - Send in the Clowns. Cold - Bleed Lyrics